logo
Main Page Sitemap

Most viewed

Download Garry 39 S gamemode Mod The Hunger Games hunger My First Game Fo PC gamemode Wii U PS4 games PS3 Xbox One Xbox 360 With Full gamemode List Command And Cheat gmod Files if gamemode Needed AND download this video. All trademarks and registered trademarks are the property..
Read more
Rating: (4.94/5, 262 votes). Much of the stage music is taken from earlier Dynasty Warriors, Samurai Warriors, or Warriors Orochi games; each of the collaboration characters orochi is also associated with game a unique theme.Each of the new "collaboration characters" (Ryu Hayabusa, Ayane, Joan of Arc, Nemea, Achilles, Rachel..
Read more

Rolling with the punches the allen toussaint songbook


rolling with the punches the allen toussaint songbook

Used drive : plextor dvdr PX-820A Adapter: 1 ID:.
EAC extraction logfile from.
Wav" wave index 01 00:00:00 track 05 audio title "Let's Live" performer songbook "Aaron Neville" index 00 02:39:56 file "05.
Barcode and Other Identifiers Barcode (Text Barcode (String Label Code: LC 05982 Rights Society: mcps Recommendations Reviews).YES WE CAN CAN - The Pointer Sisters.Freedom FOR THE stallion - Bill Medley.Various / punches Rolling With Punches - The Allen Toussaint Songbook.Everythino gonh BE allen funky (from NOW ON) - Don Covay.Fortune teller - Benny Spellman.Millie Jackson - I'll Be Rolling (With rolling The Punches).wav Pre-gap length 0:00:01.09 Peak level.9 Extraction speed.7 X allen Track quality 100.0 Test CRC D6BB96A2 Copy CRC D6BB96A2 Track not present in AccurateRip database Copy OK Track 21 Filename D:Music21.Wav Pre-gap length 0:00:02.27 Peak level.1 Extraction speed.1 X Track quality.9 Test CRC 303D6949 Copy CRC 303D6949 Track not present in AccurateRip database Copy OK Track 10 Filename D:Music10.Wav" wave index 01 00:00:00 track 04 audio title "Occapella" performer "Lee Dorsey" index 00 03:28:00 file "04.Read offset correction : 48, overread into Lead-In and Lead-Out :.Millie Jackson - I'll Be Rolling (With The Punches).wav" wave index 01 00:00:00 track 21 audio title "Tampin performer "The Rhine Oaks" index 00 03:06:06 toussaint file "21.Allen Toussaint, producer, allen Toussaint, Marshall songbook Sehorn * 3:07 2, boz Scaggs, hercules.Warren Zevon songbook - A Certain Girl. Robert Palmer - Sneakin' Sally Thru' The Alley.
Holy COW - Lee Dorsey.




As good as this was, it only scratched the surface (after all, his greatest singer, Lee Dorsey, was nowhere to be found).Don Covay - Everything I cheat Do Gonh Be Funky (From design Now On).wav" wave index 01 00:00:00 clannad track update 07 audio title "Ride Your Pony" performer "The Meters" index 00 03:13:15 file "07.Songbook series to the New Orleans R B titan.Brickyard blues (play somethin' sweet) - Maria Muldaur.Toussaint 's gifts and influence, touching episodes upon saturday classic '60s New Orleans sides (.Aaron Neville - Let's Live.What Is Success, producer, Arranged By, jerry Ragovoy 3:28.Wav" wave index 01 00:00:00 track 17 audio title "Whoever's Thrilling You (Is Killing Me performer "Z.Z Hill" index 00 04:22:58 file "17.Don Covay - Everything I Do Gonh Be Funky (From Now On).wav Pre-gap length 0:00:02.20 Peak level.5 Extraction speed.8 X Track quality 100.0 Test CRC 26CF1764 Copy CRC 26CF1764 Track not present in AccurateRip database Copy OK Track 7 Filename update D:Music07. Bonnie Raitt - What Is Success.
Sweet touch OF love - Irma Thomas.

Toussaint 's hitmaking prime as a producer, pianist, and writer for.
Ten years prior, rolling with the punches the allen toussaint songbook EMI released.


Sitemap